PDA

View Full Version : DVD Flick AVI Audio Sync Issue



aidanmaz
23-07-2009, 12:32 AM
Me and my friends recently made a 90 minute random video, and want to burn the resulting AVI to dvd, to play anywhere, but ALL the audio is at least one scene out of sync, the original AVI is perfectly in sync, and changing settings doesnt help.
Im using the latest version of DVD Flick, no sure what i am doing wrong

Cheers

Blam
23-07-2009, 01:16 AM
You're in NZ so it should be PAL, no NTSC right?

Using mediainfo post all the info about the original AVI:
http://mediainfo.sourceforge.net/en

Have you tried reinstalling a codecs? May be a codec issue

Blam

aidanmaz
23-07-2009, 02:05 AM
yes, always make dvds in PAL. here is the Mediainfo

Complete name : C:\Users\Aidan\Videos\randomtrips.avi
Format : AVI
Format/Info : Audio Video Interleave
File size : 702 MiB
Duration : 1h 29mn
Overall bit rate : 1 099 Kbps
Writing application : VirtualDubMod 1.5.10.2 (build 2542/release)
Writing library : VirtualDubMod build 2542/release

Video
ID : 0
Format : MPEG-4 Visual
Format profile : AdvancedSimple@L5
Format settings, BVOP : Yes
Format settings, QPel : No
Format settings, GMC : No warppoints
Format settings, Matrix : Default (H.263)
Codec ID : XVID
Codec ID/Hint : XviD
Duration : 1h 29mn
Bit rate : 965 Kbps
Width : 624 pixels
Height : 352 pixels
Display aspect ratio : 16/9
Frame rate : 23.976 fps
Resolution : 24 bits
Colorimetry : 4:2:0
Scan type : Progressive
Bits/(Pixel*Frame) : 0.183
Stream size : 616 MiB (88%)
Writing library : XviD 1.1.2 (UTC 2006-11-01)

Audio
ID : 1
Format : MPEG Audio
Format version : Version 1
Format profile : Layer 3
Codec ID : 55
Codec ID/Hint : MP3
Duration : 1h 29mn
Bit rate mode : Variable
Bit rate : 121 Kbps
Nominal bit rate : 128 Kbps
Channel(s) : 2 channels
Sampling rate : 48.0 KHz
Resolution : 16 bits
Video delay : 3s 624ms
Stream size : 77.5 MiB (11%)
Alignment : Split accross interleaves
Interleave, duration : 24 ms (0.58 video frame)
Interleave, preload duration : 1597 ms
Writing library : LAME3.98r
Encoding settings : -m j -V 4 -q 3 -lowpass 17 --abr 128

Not sure what the virtualdub mention is, but nonetheless

Speedy Gonzales
23-07-2009, 09:43 AM
WHAT did you record it with and how did you transfer it to the PC?

Probably be better if you use another program. Could be because you transferred the video via USB, why its out of sync

aidanmaz
23-07-2009, 12:03 PM
not too sure what program, as i didnt do it, the AVI i posted above, it plays perfect, its just burning it to a dvd that has issues, what do you recommend in place of DVD Flick?

Speedy Gonzales
23-07-2009, 12:07 PM
HOW did whoever transfer it to the PC then? It makes a diff. Could be the library you used (lame), try something else.

Blam
23-07-2009, 02:38 PM
Hmm...that all seems fine.

Speedy-with DVD flick you just load the movie file straight in, and it plays fine on the computer, so its probably not how he transferred it:)

Aidan, try re-encoding the file with one of the preset in handbrake:
http://handbrake.fr/

Blam

Chilling_Silence
23-07-2009, 03:22 PM
Interesting, most "family / friends videos" don't get encoded with virtualdubmod, nor do they get their video encoded quite like that... It's how the SCENE generally encodes stuff ;) IF your friend actually did that himself, he should be smart enough to put it on to a DVD.

However, benefit of the doubt and all, the problem is your decoding issue. Try grabbing an application such as WinAVI and give it a whirl, it'll do just what you want.

aidanmaz
23-07-2009, 04:58 PM
hmmm yes the friend in question is an odd character, but anyway that off topic, il try handbrake (?) unfortunately since its the once off, im tryin to stick to free products as theres no point buying a product if il never use it.

Speedy Gonzales
23-07-2009, 05:11 PM
Handbrake is free

Blam
23-07-2009, 05:31 PM
Handbrake is free

He was referring to WinAVI:p

Adge
24-07-2009, 02:42 PM
Looking at that info, I wouldn't be surprised if he has used AutoGordian Knot to encode the video.

I notice that the audio is sent to 'variable bitrate' compression. I've sometimes had trouble with audio-sync issues arising from this setting, so you could try and get him to re-do it with 'constant bitrate' setting instead.

Another thought - maybe he's trying to record a stream off some sort of video-input (like off a TV tuner card). In this case, he'd probably getting into strife by trying to record the video and audio at the same time using high-compression codecs. He'd be better off leaving the audio as an uncompressed wav file while the video encodes, and then seeing if he can do the mp3 audio compression later. Even fairly grunty PCs can struggle to encode a stream of video to avi and audio to mp3 at the same time.

Hope this helps!

Adge